<?xml version="1.0" standalone="no"?>
<!DOCTYPE svg PUBLIC "-//W3C//DTD SVG 1.1//EN" "http://www.w3.org/Graphics/SVG/1.1/DTD/svg11.dtd">
<svg xmlns="http://www.w3.org/2000/svg">
<metadata>Generated by Fontastic.me</metadata>
<defs>
<font id="carmen" horiz-adv-x="512">
<font-face font-family="carmen" units-per-em="512" ascent="480" descent="-32"/>
<missing-glyph horiz-adv-x="512" />

<glyph unicode="&#97;" d="M303 491c22 0 44-2 64-7l-7-50c-6 1-12 2-17 3-9 0-17 1-24 1-13 0-29-2-38-14-6-7-8-18-8-34l0-49 84 0-4-52-80 0 0-268-69 0 0 268-53 0 0 52 53 0 0 54c0 66 31 96 99 96m0 21c-79 0-119-39-119-117l0-34-41 0c-3 0-6-1-9-4-2-2-4-6-4-9l0-66c0-4 2-7 4-9 3-3 6-4 9-4l41 0 0-256c0-4 1-7 4-9 2-3 5-4 9-4l84 0c3 0 6 1 9 4 2 2 3 5 3 9l0 256 68 0c3 0 6 1 8 3 3 2 4 5 4 8l6 67c0 4-1 8-4 10-3 3-6 4-9 4l-73 0 0 29c0 11 2 19 4 22 3 4 10 5 22 5 6 0 13 0 21-1 8-1 16-2 24-4 1 0 2 0 3 0 2 0 5 1 7 2 3 2 4 5 5 9l9 65c1 7-2 12-9 14-24 6-49 10-76 10z"/>
<glyph unicode="&#98;" d="M0 395l263-272-7-7-262 273z m512 0l6-7-262-272-7 7z"/>
<glyph unicode="&#99;" d="M512 23l0 466c0 12-11 23-23 23l-466 0c-12 0-23-11-23-23l0-463c0-15 11-26 23-26l259 0 0 205-66 0 0 71 66 0 0 77c0 45 39 77 74 77l74 0 0-66-35 0c-17 0-39-14-39-31l0-57 68 0 0-71-68 0 0-205 133 0c12 0 23 11 23 23z"/>
<glyph unicode="&#100;" d="M65 512l382 0c37 0 65-28 65-65l0-382c0-37-28-65-65-65l-382 0c-37 0-65 28-65 65l0 382c0 37 28 65 65 65z m308-57c-12 0-23-11-23-23l0-54c0-11 11-22 23-22l57 0c11 0 22 11 22 22l0 54c3 12-8 23-22 23z m82-159l-45 0c5-14 5-29 5-43 0-85-71-153-159-153-88 0-159 68-159 153 0 14 3 31 5 43l-45 0 0-216c0-12 8-20 20-20l355 0c12 0 20 8 20 20l0 216z m-199 60c-57 0-102-43-102-100 0-54 45-100 102-100 57 0 102 46 102 100 0 57-45 100-102 100z"/>
<glyph unicode="&#101;" d="M0 489l0-466c0-12 11-23 23-23l466 0c12 0 23 11 23 23l0 466c0 12-11 23-23 23l-466 0c-12 0-23-11-23-23z m393-165c0-3 0-5 0-8 0-94-72-199-200-199-39 0-76 11-108 31 6 0 12 0 17 0 35 0 63 11 89 31-32 0-57 20-66 49 6 0 9 0 14 0 6 0 12 0 17 2-31 6-56 35-56 69 8-6 19-9 31-9-20 12-31 34-31 57 0 14 2 26 8 34 34-43 88-68 145-71 0 6-3 11-3 17 0 40 32 71 71 71 20 0 37-8 52-23 17 3 31 9 45 18-6-18-17-32-31-40 14 3 28 5 40 11-9-17-20-28-34-40z"/>
<glyph unicode="&#102;" d="M369 466c68 0 122-55 122-123 0-35-14-66-37-89l-198-199-201 203c-21 22-34 52-34 85 0 68 54 123 122 123 51 0 95-31 113-76 18 45 62 76 113 76m0 20c-45 0-86-21-113-55-27 34-68 55-113 55-79 0-143-64-143-143 0-37 14-73 40-99l201-204 15-14 15 14 197 200c28 27 44 64 44 103 0 79-64 143-143 143z"/>
<glyph unicode="&#103;" d="M186 184l92-184 234 512-512-246z m6 20l-143 63 392 188z m85-157l-71 143 252 253z"/>
<glyph unicode="&#104;" d="M287 408l0-84-20 0c-141-1-220-64-240-191 77 90 166 90 239 90l21 0 0-83 189 134-189 134m-21 40l245-174-245-174 0 102c-98 0-188-5-265-142 0 87 14 282 265 285z"/>
<glyph unicode="&#105;" d="M353 444c24 0 46-10 62-27 4-4 9-6 14-6 2 0 3 0 4 0 1 0 2 0 3 1-5-5-7-13-5-21 3-7 10-13 19-13-2-1-3-1-4-2-5-4-8-10-8-17 0-4 1-8 1-13 0-136-105-278-279-278-28 0-56 5-82 13 32 7 62 22 89 43 6 5 9 13 6 21-2 8-9 13-18 14-26 0-50 12-65 32 7 1 13 2 20 4 8 2 14 10 14 19 0 9-7 17-16 19-29 6-53 27-63 55 7-2 15-3 22-3 0 0 1 0 1 0 8 0 16 5 18 13 3 9 0 18-7 23-24 15-38 42-38 70 0 6 0 11 1 16 56-55 130-88 208-92 0 0 1 0 1 0 6 0 11 3 15 7 4 5 6 11 4 17-1 6-2 13-2 20 0 47 38 85 85 85m0 19c-58 0-105-47-105-104 0-9 1-17 3-24-87 4-164 46-215 109-9-15-15-33-15-53 0-36 19-68 47-87-17 1-33 6-47 13 0 0 0 0 0-1 0-51 36-93 83-102-8-3-18-4-27-4-7 0-13 1-20 2 14-42 52-72 98-73-36-28-81-45-130-45-8 0-17 1-25 2 46-30 101-47 160-47 193 0 298 159 298 297 0 5 0 10 0 14 20 15 38 33 52 54-19-8-39-14-60-16 22 13 38 33 46 58-20-12-43-21-67-26-19 20-46 33-76 33z m157-49l0 0z"/>
<glyph unicode="&#106;" d="M368 352l-64 64-160-160 160-160 64 64-96 96z"/>
<glyph unicode="&#107;" d="M208 416l-64-64 96-96-96-96 64-64 160 160z"/>
<glyph unicode="&#108;" d="M384 128l-256 0 0 256 256 0z"/>
<glyph unicode="&#109;" d="M128 96l96 0 0 320-96 0z m160 320l0-320 96 0 0 320z"/>
<glyph unicode="&#110;" d="M128 416l256-160-256-160z"/>
<glyph unicode="&#111;" d="M64 128l192 128-192 128z m384 128l-192 128 0-256z"/>
<glyph unicode="&#112;" d="M256 256l192-128 0 256z m-192 0l192-128 0 256z"/>
<glyph unicode="&#113;" d="M64 416l0-64 384 0 0 64z m0-192l384 0 0 64-384 0z m0-128l384 0 0 64-384 0z"/>
<glyph unicode="&#114;" d="M384 416l-192-192-64 64-64-64 128-128 256 256z"/>
<glyph unicode="&#115;" d="M256 512c-88 0-160-72-160-160 0-89 80-208 160-352 80 144 160 263 160 352 0 88-71 160-160 160z m0-224c-35 0-64 28-64 64 0 35 29 64 64 64 36 0 64-29 64-64 0-36-28-64-64-64z"/>
<glyph unicode="&#116;" d="M416 352l-64 64-96-96-96 96-64-64 96-96-96-96 64-64 96 96 96-96 64 64-96 96z"/>
<glyph unicode="&#117;" d="M224 224l128 0 32 32-32 32-64 0 0 96-32 32-32-32z m32 256c-124 0-224-100-224-224 0-124 100-224 224-224 124 0 224 100 224 224 0 124-100 224-224 224z m0-384c-88 0-160 72-160 160 0 88 72 160 160 160 88 0 160-72 160-160 0-88-72-160-160-160z"/>
<glyph unicode="&#118;" d="M416 448l-320 0c-31 0-64-32-64-64l0-192c0-64 64-64 64-64l32 0 0-128 128 128c0 0 129 0 160 0 31 0 64 34 64 64l0 192c0 31-32 64-64 64z"/>
<glyph unicode="&#119;" d="M256 80c200 157 192 212 192 256 0 43-36 96-96 96-60 0-96-64-96-64 0 0-36 64-96 64-60 0-96-53-96-96 0-44-7-99 192-256z"/>
<glyph unicode="&#120;" d="M298 358c-11-1-24-2-37-4-19-2-39-6-55-14-32-12-54-40-54-80 0-51 33-77 74-77 14 0 25 2 35 5 17 5 30 14 47 31 9-13 12-19 28-32 4-2 8-2 12 1 10 8 28 24 38 32 4 4 3 9 0 13-9 12-18 22-18 46l0 77c0 33 2 63-22 85-20 18-50 25-74 25-4 0-7 0-11 0-43-3-90-22-100-76-2-7 3-9 7-10l48-6c5 1 8 5 8 9 5 19 20 29 37 31 1 0 2 0 4 0 10 0 21-5 27-13 7-11 6-24 6-36z m0-50c0-20 1-35-9-53-6-12-17-19-28-22-1 0-4-1-7-1-18 0-30 15-30 36 0 28 17 41 37 47 11 2 24 3 37 3z m158-241c21 17 30 50 30 66l0 3c0 4-1 7-1 8-5 5-35 10-62 2-7-2-14-6-20-10-5-3-4-7 1-7 5 1 12 2 19 3 16 1 35 1 40-5 7-8-7-42-13-57-2-5 2-7 6-3z m-428 66c60-54 139-87 228-87 55 0 118 15 167 45 7 4 13 8 19 12 9 7 1 16-7 12-4-1-8-3-12-4-54-22-110-31-162-31-83 0-163 23-228 60-6 4-10-2-5-7z"/>
<glyph unicode="&#121;" d="M280 451c16 20 44 34 67 35 3-27-8-54-24-73-16-20-42-35-68-33-3 27 10 54 25 71z m131-368c-19-28-39-56-70-57-31 0-41 19-76 19-35 0-46-18-75-19-30-2-53 30-73 58-39 57-69 162-29 232 20 35 56 57 95 58 30 0 58-20 76-20 18 0 52 25 88 21 15-1 57-6 84-46-2-1-50-29-50-87 1-70 61-93 62-94-1-1-10-33-32-65z"/>
<glyph unicode="&#122;" d="M104 80c36 52 95 85 162 85 61 0 115-28 151-71 41 41 67 99 67 162 0 127-103 230-231 230-127 0-230-103-230-230 0-70 32-133 81-176z m273 107c-4-8-10-9-17-6-30 14-65 22-101 22-37 0-72-8-103-23-3-2-11-2-14 7-3 10 2 15 5 17 34 16 72 25 112 25 40 0 78-8 111-25 5-2 10-10 7-17z m19 59c-2-4-6-6-10-6-2 0-3 0-4 1-37 16-79 26-123 26-43 0-84-9-122-26-1 0-2-1-4-1-4 0-8 3-11 6l-2 8c0 3 2 7 5 9 41 19 86 29 134 29 48 0 94-10 135-29 3-2 5-6 5-9z m-288 93c47 19 98 29 151 29 54 0 104-10 151-29 6-3 10-9 10-17 0-10-8-19-19-19-1 0-3 0-4 1-43 17-89 26-138 26-48 0-95-9-137-26-1-1-3-1-4-1-11 0-20 9-20 19 0 7 4 13 10 17z m158-250c-39 0-74-19-96-48 26-10 54-15 83-15 37 0 71 8 102 23-22 25-54 40-89 40z"/>
<glyph unicode="&#65;" d="M408 369c28 0 53-9 73-27 21-19 31-47 31-86 0-38-10-67-31-85-20-18-45-28-73-28-27 0-54 7-81 21-27 13-51 32-71 54-20-22-43-41-70-54-27-14-54-21-81-21-29 0-54 10-74 28-21 18-31 47-31 85 0 39 10 67 31 86 20 18 45 27 74 27 27 0 54-7 81-20 27-14 50-32 70-54 20 22 43 40 71 54 27 13 54 20 81 20m-303-181c21 0 43 7 65 19 23 13 43 29 58 49-15 20-34 36-57 49-23 12-44 19-66 19-38 0-58-23-58-68 0-45 20-68 58-68m303 0c38 0 58 23 58 68 0 45-20 68-58 68-22 0-44-7-66-19-23-13-42-29-57-49 15-20 34-36 57-49 22-12 44-19 66-19"/>
<glyph unicode="&#66;" d="M319 417c-12 0-19-1-22-5-2-3-4-11-4-22l0-29 73 0c3 0 6-1 9-4 2-2 4-6 4-10l-6-67c0-3-1-6-4-8-2-2-5-3-8-3l-68 0 0-256c0-4-1-7-3-9-3-3-6-4-10-4l-83 0c-4 0-7 1-9 4-3 2-4 5-4 9l0 256-41 0c-3 0-6 1-9 4-2 2-4 5-4 9l0 66c0 3 2 7 4 9 3 3 6 4 9 4l41 0 0 34c0 78 40 117 119 117 27 0 52-4 76-10 7-2 10-7 9-14l-9-65c-1-4-2-7-5-9-3-2-7-3-10-2-8 2-16 3-24 4-8 1-15 1-21 1z"/>
<glyph unicode="&#67;" d="M82 99l7 0 0-9 0 0c3 6 10 11 18 11 15 0 20-8 20-21l0-35-7 0 0 34c0 9-3 16-14 16-10 0-17-8-17-18l0-32-7 0z m99-33c0-11-9-17-19-17-7 0-13 4-13 10 0 11 14 11 26 13 2 0 5 1 5 3l1 0z m-29 17c0 9 6 12 14 12 8 0 15-2 15-11 0-6-3-7-9-7-14-2-29-3-29-18 0-11 8-16 18-16 11 0 15 4 20 11l0 0c0-6 1-9 8-9 2 0 3 0 4 0l0 6c0-1-1-1-2-1-2 0-4 2-4 4l0 29c0 15-10 18-20 18-12 0-21-6-22-18z m55 16l6 0 0-12 0 0c4 8 11 14 21 13l0-7c-12 1-20-8-20-19l0-29-7 0z m77-17c-2 8-7 13-16 13-13 0-19-11-19-23 0-12 6-23 19-23 8 0 15 6 16 15l7 0c-2-13-11-21-23-21-17 0-26 13-26 29 0 16 9 29 26 29 12 0 21-6 22-19z m22 17l7 0 0-54-7 0z m0 21l7 0 0-10-7 0z m59-37c0 9-7 12-14 12-6 0-13-2-13-9 0-6 7-8 11-9l9-2c8-2 16-6 16-16 0-11-12-16-22-16-13 0-22 6-23 19l7 0c0-9 7-13 16-13 6 0 15 2 15 10 0 6-6 9-12 10l-9 2c-8 2-15 5-15 15 0 11 11 15 21 15 11 0 19-6 20-18l-7 0z m48 12c13 0 19-11 19-23 0-12-6-23-19-23-13 0-19 11-19 23 0 12 6 23 19 23z m0 6c-17 0-26-13-26-29 0-16 9-29 26-29 17 0 26 13 26 29 0 16-9 29-26 29z m-327-76l12 0c2 0 5-1 5-5 0-4-2-5-5-5l-12 0z m-3-24l3 0 0 12 11 0c4 0 6-2 6-7 0-3 0-5 1-5l3 0c-1 0-1 4-1 5 0 5-1 7-5 8l0 0c4 1 5 3 5 6 0 6-4 8-8 8l-15 0z m54 27l22 0 0-3-19 0 0-9 18 0 0-3-18 0 0-10 19 0 0-2-22 0z m79-17c-1-6-6-11-14-11-8 0-14 6-14 14 0 6 4 14 14 14 6 0 13-2 14-10l-3 0c-1 6-6 8-11 8-6 0-11-4-11-12 0-6 3-11 11-11 7 0 10 3 11 8l3 0z m32 3c0 8 6 12 12 12 6 0 11-4 11-12 0-8-5-11-11-11-6 0-12 3-12 11z m-3 0c0-9 7-14 15-14 7 0 14 5 14 14 0 10-7 14-14 14-8 0-15-4-15-14z m63 11l12 0c3 0 6-1 6-5 0-4-3-5-6-5l-12 0z m-3-24l3 0 0 12 11 0c4 0 6-2 6-7 0-3 1-5 1-5l3 0c-1 0-1 4-1 5 0 5-1 7-5 8l0 0c4 1 6 3 6 6 0 6-5 8-9 8l-15 0 0-27z m57 24l10 0c6 0 9-4 9-11 0-8-4-11-9-11l-10 0z m-3-24l14 0c7 0 11 6 11 13 0 9-4 14-12 14l-13 0z m74 19c0 5-4 6-8 6-5 0-8-2-8-5 0-4 3-4 10-5 5-1 10-2 10-8 0-6-6-8-12-8-6 0-11 2-12 10l3 0c0-6 4-7 9-7 4 0 9 1 9 5 0 4-5 5-10 5-7 1-10 3-10 7 0 6 5 8 11 8 5 0 11-2 11-8l-3 0z m15 238c-26 37-56 45-63 49-8 4-5 6-5 6 0 0 0 0 3 0 3 0 9-2 9-2 0 0 0 0-3 2-2 3-10 6-10 6l0 109c0 50-24 82-79 82-56 0-77-35-77-35l0 29-83 0 0-184-8-6 8 0 0-3c0 0 0 0-7-3-7-3-19-13-19-13 0 0 0 0 11 4 10 4 20 3 20 3 0 0-6-3-20-11-34-20-63-59-66-91-4-32 22-46 23-42 0 4 0 0-2 11-2 12 1 20 5 20 5 0 21-8 35-14 77-34 107-18 107-18 0 0 7 3-6 6-45 13-55 28-55 28 0 0 17-3 38-2 20 1 28 5 28 5 0 0 0-4 12-7 11-4 46-3 46-3 0 0-3-3-9-8-5-4-11-5-12-8-1-2-5-11 39-8 44 2 77 27 80 29 3 2 3 0 2-10-1-11-16-34-13-33 36 7 66 29 69 66 3 38-49 76-47 76 13-4 27-11 47-30 0-1 1-1 1-1l1-1z m-333 0c-9-14-17-27-17-27 0 0-4 15 6 27 16 17 22 18 31 23 4 3 4 1 4 1 0 0-14-10-24-24z m119 2c0 3 5 6 12 6 6 0 12-3 12-6 0-3-6-6-12-6-7 0-12 3-12 6z m99-31c-4-2-6 0-6 0 0 0 12 20 4 31-13 20-37 24-37 24 0 0 22-13 17-33-5-19-26-20-32-20-5 0-9 4-9 4 0 0 9 6 12 12 3 5 1 11 1 12 0-1 0-4-11-9-13-6-22-4-22-4 0 0 19 5 13 17-5 11-16 10-24 10-8-1-21-5-24-5-3 1 0 8 18 13 19 5 26 3 26 3 0 0-6 4-22 4-15-1-24-1-24-1 0 0 13 7 21 9 7 2 18 2 18 2 0 0-12 3-21 3-10 0-14 0-14 0 0 0 6 4 15 6 9 1 17 3 17 3 0 0-6 1-11 1-5 0-11 2-11 2l0 87c0 0 1 40 36 40 35 0 29-44 29-44l0-82-6-1c0 0 9-3 19-7 9-3 17-9 17-9 0 0-10 2-19 3-8 0-15 0-15 0 0 0 29-8 48-30 15-16 1-38-3-41z"/>
<glyph unicode="&#49;" d="M256 500c135 0 244-109 244-244 0-135-109-244-244-244-135 0-244 109-244 244 0 135 109 244 244 244m0 12c-141 0-256-115-256-256 0-141 115-256 256-256 141 0 256 115 256 256 0 141-115 256-256 256z m28-185l40 0 0-142-40 0z m-95 0l39 0 0-142-39 0z"/>
<glyph unicode="&#50;" d="M256 500c135 0 244-109 244-244 0-135-109-244-244-244-135 0-244 109-244 244 0 135 109 244 244 244m0 12c-141 0-256-115-256-256 0-141 115-256 256-256 141 0 256 115 256 256 0 141-115 256-256 256z m77-256l-110 77 0-154 110 77"/>
<glyph unicode="&#70;" d="M204 499l38-22c14-8 24-19 30-34 7-15 11-30 11-46 0-18-3-32-9-42-7-11-15-21-23-28l-11-11c-4-4-9-9-13-12-9-10-14-22-14-35 0-14 6-26 19-37l32-27c11-9 21-20 30-33 8-11 13-26 13-45 0-19-5-36-15-50-10-14-23-27-38-36-16-10-34-17-53-21-20-5-39-7-58-7-13 0-28 1-44 5-16 3-30 8-43 15-13 7-24 15-32 26-7 10-11 22-11 37 0 18 5 33 16 46 11 12 25 23 42 31 17 8 36 14 56 17 21 4 40 6 56 6l27 1-17 20c-5 5-9 12-13 19-3 6-4 12-4 19 0 3 0 6 1 9l1 1c1 4 2 7 4 11l9 23-24-6c-2 0-5 0-8 0l-12 0c-13 0-26 2-38 6-13 5-23 11-32 19-9 9-17 19-22 30-5 11-8 23-8 37 0 13 2 25 7 37 5 12 12 22 20 32 9 10 19 18 30 25 11 7 23 12 36 15 18 3 37 5 56 5l8 0m129 13l-137 0c-20 0-39-2-59-6-14-3-27-8-40-16-12-7-23-17-32-27-10-11-17-23-23-36-5-13-8-27-8-42 0-16 3-30 9-43 7-12 15-24 25-33 10-9 22-17 36-22 14-5 28-7 43-7 4 0 8 0 12 0 4 0 7 0 11 1-2-5-3-9-5-13-1-4-2-8-2-13 0-9 2-18 6-25 4-8 9-15 14-21-17-1-37-3-58-6-21-4-41-10-60-19-18-8-34-20-46-34-13-14-19-33-19-54 0-18 5-33 14-45 9-12 21-22 36-29 14-8 29-14 46-17 17-3 33-5 47-5 20 0 40 2 61 7 21 5 40 13 57 23 17 11 31 24 42 40 11 16 16 35 16 57 0 22-5 39-14 53-10 13-21 25-33 35-11 10-22 19-32 27-10 8-15 17-15 27 0 10 4 18 11 25 7 7 15 15 24 23 9 9 17 19 25 31 7 12 11 29 11 49 0 17-4 35-12 52-8 16-20 30-36 39l43 0z m-151-334c3 0 6 0 9 0 2 0 4-1 6-1 7-5 15-10 22-15 9-6 16-12 22-18 6-6 11-13 16-21 3-7 5-14 5-23 0-10-2-19-7-26-5-8-11-14-19-19-8-5-18-9-28-11-11-2-22-3-32-3-11 0-23 1-36 4-13 3-25 7-35 13-10 6-18 13-25 22-6 8-9 18-9 30 0 13 3 23 9 31 7 9 16 16 26 21 11 6 24 10 37 12 14 3 27 4 39 4m0 13c-13 0-27-2-41-4-15-3-28-8-41-14-12-6-22-14-30-24-8-11-12-23-12-39 0-14 4-27 12-37 8-11 17-20 29-26 11-7 24-12 38-15 14-2 27-4 39-4 11 0 23 1 35 4 12 2 22 6 32 12 10 6 17 13 23 23 6 9 9 20 9 33 0 11-2 21-7 30-5 8-11 16-18 23-7 7-15 13-23 19-9 6-17 12-26 17-3 1-6 1-9 1-4 1-7 1-10 1z m-28 286c11 0 21-3 29-10 9-7 17-16 23-27 6-12 11-24 14-38 3-13 4-25 4-36 0-16-3-30-10-41-6-10-18-14-34-14-12 0-21 3-30 9-9 7-17 16-24 27-7 11-12 23-16 36-3 12-5 24-5 35 0 8 1 16 3 23 2 7 5 14 10 19 3 6 8 10 14 13 6 3 13 4 22 4m0 13c-11 0-20-2-28-6-7-4-14-9-19-16-5-7-9-14-11-23-3-9-4-18-4-27 0-12 2-25 6-39 4-14 10-27 17-39 8-12 17-22 28-30 10-8 23-12 37-12 21 0 36 7 44 20 9 14 13 30 13 48 0 12-2 25-5 39-3 14-8 28-15 41-7 12-15 23-26 31-10 9-23 13-37 13z m358-51l-72 0 0 71-35 0 0-71-72 0 0-35 72 0 0-70 35 0 0 70 72 0z"/>
<glyph unicode="&#51;" d="M164 307l0-102 84 0 69-70 0 242-69-70z m98-14l35 34 0-142-35 34-6 6-72 0 0 62 72 0z m199 116l-16-12c29-40 47-88 47-141 0-53-18-101-47-141l16-12c32 43 51 96 51 153 0 57-19 110-51 153z m-49-269c24 32 39 73 39 116 0 43-15 84-39 116l-17-12c22-29 35-65 35-104 0-39-13-75-35-104z m-49 37c16 22 26 49 26 79 0 30-10 57-26 79l-17-12c14-19 23-42 23-67 0-25-9-48-23-67z m-107-157c-130 0-236 106-236 236 0 130 106 236 236 236 65 0 123-27 166-69l15 14c-47 46-111 75-181 75-141 0-256-115-256-256 0-141 115-256 256-256 70 0 134 29 181 75l-15 14c-43-42-101-69-166-69z"/>
<glyph unicode="&#72;" d="M248 488c16-9 28-23 36-39 8-17 12-35 12-52 0-20-4-37-11-49-8-12-16-22-25-31-9-8-17-16-24-23-7-7-11-15-11-25 0-10 5-19 15-27 10-8 21-17 32-27 12-10 23-22 33-35 9-14 14-31 14-53 0-22-5-41-16-57-11-16-25-29-42-40-17-10-36-18-57-23-21-5-41-7-61-7-14 0-30 2-47 5-17 3-32 9-46 17-15 7-27 17-36 29-9 12-14 27-14 45 0 21 6 40 19 54 12 14 28 26 46 34 19 9 39 15 60 19 21 3 41 5 58 6-5 6-10 13-14 21-4 7-6 16-6 25 0 5 1 9 2 13 2 4 3 8 5 13-4-1-7-1-11-1-4 0-8 0-12 0-15 0-29 2-43 7-14 5-26 13-36 22-10 9-18 21-25 33-6 13-9 27-9 43 0 15 3 29 8 42 6 13 13 25 23 36 9 10 20 20 32 27 13 8 26 13 40 16 20 4 39 6 59 6l137 0-42-24z m27-388c0 11-2 21-7 30-5 8-11 16-18 23-7 7-15 13-23 19-9 6-17 12-26 17-3 1-6 1-9 1-4 1-7 1-10 1-13 0-27-2-41-4-15-3-28-8-41-14-12-6-22-14-30-24-8-11-12-23-12-39 0-14 4-27 12-38 8-10 17-19 29-25 11-7 24-12 38-15 14-3 27-4 39-4 11 0 23 1 35 4 12 2 22 6 32 12 10 6 17 13 23 23 6 9 9 20 9 33z m-95 198c21 0 36 7 44 20 9 14 13 30 13 48 0 12-2 25-5 39-3 14-8 28-15 41-7 12-15 23-26 31-10 9-23 13-37 13-11 0-20-2-28-6-7-4-14-9-19-16-5-7-9-14-11-23-3-9-4-18-4-27 0-12 2-25 6-39 4-14 10-27 17-39 8-12 17-22 28-30 10-8 23-12 37-12z m332 141l-72 0 0 71-35 0 0-71-72 0 0-35 72 0 0-70 35 0 0 70 72 0z"/>
<glyph unicode="&#52;" d="M256 492c130 0 236-106 236-236 0-130-106-236-236-236-130 0-236 106-236 236 0 130 106 236 236 236m0 20c-141 0-256-115-256-256 0-141 115-256 256-256 141 0 256 115 256 256 0 141-115 256-256 256z m93-256l-95-95c0 0-10 19-10 19 0 0 77 76 77 76 0 0-77 76-77 76 0 0 10 19 10 19z m-29 10l-309 0 0-20 310 0 0 20z"/>
<glyph unicode="&#74;" d="M0 140l94 0 0-28-94 0z m0 38l94 0 0-29-94 0z m0 37l94 0 0-29-94 0z m0 37l94 0 0-29-94 0z m0 37l94 0 0-29-94 0z m106-149l94 0 0-28-94 0z m0 38l94 0 0-29-94 0z m0 37l94 0 0-29-94 0z m105-75l94 0 0-28-94 0z m0 38l94 0 0-29-94 0z m0 37l94 0 0-29-94 0z m0 37l94 0 0-29-94 0z m0 37l94 0 0-29-94 0z m0 37l94 0 0-29-94 0z m0 37l94 0 0-29-94 0z m106-223l94 0 0-28-94 0z m0 38l94 0 0-29-94 0z m0 37l94 0 0-29-94 0z m0 37l94 0 0-29-94 0z m0 37l94 0 0-29-94 0z m105-149l94 0 0-28-94 0z m0 38l94 0 0-29-94 0z m0 37l94 0 0-29-94 0z m0 37l94 0 0-29-94 0z m0 37l94 0 0-29-94 0z m0 37l94 0 0-29-94 0z m0 37l94 0 0-29-94 0z m0 37l94 0 0-29-94 0z"/>
<glyph unicode="&#75;" d="M498 498l0-484-484 0 0 484 484 0m14 14l-512 0 0-512 512 0z m-198-126l-29 0 0-178c-10 4-23 6-35 3-30-6-50-29-45-52 5-24 32-38 61-32 25 5 43 23 45 42l1 0 0 144c38-6 44-36 39-49-2-5 1-8 7 0 43 61-49 82-44 122z m-65-122l-107 0 0-22 107 0z m0 41l-107 0 0-22 107 0z m0 41l-107 0 0-22 107 0z"/>
<glyph unicode="&#76;" d="M186 184l92-184 234 512-512-246z m272 259l-181-396"/>
<glyph unicode="&#77;" d="M266 448l243-172-243-172 0 101c-97 0-187-5-263-141 0 86 15 279 263 282z"/>
<glyph unicode="&#78;" d="M365 205c39 21 69 37 71 39 8 4 17 16 0 25-5 2-34 18-71 39l-51-52z m-73 32l-163-165c3-1 8 0 13 3 11 6 124 68 202 110z m1 39l51 52c0 0-191 103-202 110-4 2-9 3-13 2z m-21-20l-164 164c-7-2-12-8-12-19 0-19 0-274 0-290 0-11 4-19 12-20z"/>
<glyph unicode="&#53;" d="M256 492c130 0 236-106 236-236 0-130-106-236-236-236-130 0-236 106-236 236 0 130 106 236 236 236m0 20c-141 0-256-115-256-256 0-141 115-256 256-256 141 0 256 115 256 256 0 141-115 256-256 256z m2-161c0 0 10-19 10-19 0 0-77-76-77-76 0 0 77-76 77-76 0 0-10-19-10-19l-95 95z m-66-105l309 0 0 20-309 0z"/>
<glyph unicode="&#80;" d="M510 414c-19-8-39-14-60-16 21 13 38 33 46 58-20-12-43-21-67-26-19 20-46 33-76 33-58 0-105-47-105-104 0-9 1-17 3-24-87 4-164 46-215 109-9-15-15-33-15-53 0-36 19-68 47-87-17 1-33 6-47 13 0 0 0 0 0-1 0-51 36-93 83-102-8-3-18-4-27-4-7 0-13 1-20 2 14-42 52-72 98-73-36-28-81-45-130-45-8 0-17 1-25 2 46-30 101-47 160-47 193 0 298 159 298 297 0 5 0 10 0 14 20 15 38 33 52 54z"/>
<glyph unicode="&#54;" d="M256 0c-141 0-256 115-256 256 0 141 115 256 256 256 141 0 256-115 256-256 0-141-115-256-256-256z m0 496c-133 0-240-107-240-240 0-133 107-240 240-240 133 0 240 107 240 240 0 133-107 240-240 240z m-96-248l0 16 192 0 0-16z m0 64l0 16 192 0 0-16z m0-112l192 0 0-16-192 0z"/>
</font>
</defs>
</svg>
